Monday, May 21, 2012

John Carter (2012)


Planet itu sudah berada di ambang kehancuran. Cadangan air semakin menipis sementara atmosfer yang selama ini memberi kehidupan pun mulai tak bisa diharapkan. Di saat kritis seperti ini, para penghuni planet ini malah saling bermusuhan. Tak ada harapan lagi buat planet berwarna merah ini, kecuali ada pendatang yang bisa menyatukan mereka semua untuk menyelamatkan rumah tinggal mereka dari kehancuran. Orang itu bisa jadi adalah John Carter (Taylor Kitsch).



John Carter adalah seorang veteran perang saudara yang tiba-tiba saja menghilang dari bumi dan terdampar di planet Mars. Carter sudah jenuh dengan perang. Perang telah membuatnya kehilangan segalanya, termasuk rasa kemanusiaan. Di tengah kebingungan karena tak tahu berada di mana, John Carter bertemu makhluk penghuni Mars yang menjadikannya tawanan. John Carter memang berhasil lolos namun ini baru awal dari petualangan selanjutnya.
Di tengah pelarian, Carter bertemu Dejah Thoris (Lynn Collins), putri Helium, yang memang sedang membutuhkan pertolongan. Meski awalnya tak ingin terlibat konflik yang terjadi di sana namun Carter akhirnya sadar kalau bisa jadi ia adalah satu-satunya yang bisa menyelamatkan planet Mars dari kehancuran.

John Carter (2012) DVDRip
Format : AVI
Format/Info : Audio Video Interleave
Format profile : OpenDML
Format settings : rec
File size : 750 Mb
Duration : 2h 12mn
Overall bit rate : 1 406 Kbps
Writing application : VirtualDubMod 1.5.10.2 (build 2542/release)
Writing library : VirtualDubMod build 2542/release
Copyright : SIGISMUNT


Video
ID : 0
Format : MPEG-4 Visual
Format profile : Advanced Simple@L5
Format settings, BVOP : 2
Format settings, QPel : No
Format settings, GMC : No warppoints
Format settings, Matrix : Default (MPEG)
Codec ID : XVID
Codec ID/Hint : XviD
Duration : 2h 12mn
Bit rate : 1 081 Kbps
Width : 608 pixels
Height : 256 pixels
Display aspect ratio : 2.40:1
Frame rate : 23.976 fps
Color space : YUV
Chroma subsampling : 4:2:0
Bit depth : 8 bits
Scan type : Progressive
Compression mode : Lossy
Bits/(Pixel*Frame) : 0.290
Stream size : 1 021 MiB (77%)
Writing library : XviD 64


Audio
ID : 1
Format : AC-3
Format/Info : Audio Coding 3
Mode extension : CM (complete main)
Format settings, Endianness : Big
Codec ID : 2000
Duration : 2h 12mn
Bit rate mode : Constant
Bit rate : 320 Kbps
Channel(s) : 6 channels
Channel positions : Front: L C R, Side: L R, LFE
Sampling rate : 48.0 KHz
Bit depth : 16 bits
Compression mode : Lossy
Stream size : 302 MiB (23%)
Alignment : Aligned on interleaves
Interleave, duration : 64 ms (1.53 video frames)
Interleave, preload duration : 192 ms




3 komentar :

High School Diploma on May 30, 2012 at 11:24 PM said...

I've surfed the net more than three hours today, and your blog was the coolest of all. Thanks a lot, it is really useful to me

Terence on June 23, 2012 at 4:20 PM said...

Very interesting and awesome post.

Zacky Hardi on July 7, 2012 at 6:40 AM said...

Sangat menarik artikelnya bro,slam knal dan smoga sehat selalu.
Jngan lupa kunjungan balik ke Misteri Google

Post a Comment

please comment if this article useful, criticism and suggestions that are built will we received. thanks

 

Download Centre . Copyright 2008 All Rights Reserved vomanet Trick by Tricksip Template Blog edited by Vomanet dot com